martes, 15 de octubre de 2013

Silversun Pickups - Live At Austin City Limits, Texas 10-12-2013



 Live At Austin City Limits, Texas 10-12-2013




Setlist:

01 Skin Graph
02 The Royal We
03 Bloody Mary (Nerve Endings)
04 Substitution
05 Future Foe Scenarios
06 Kissing Families
07 The Pit
08 Panic Switch
09 Dots and Dashes (Enough Already)
10 Lazy Eye

Lineage: YouTube webstream (1080p) -> downloaded .ts segments (mplayer + batch script) -> TSSplitter (join)

Mediainfo:

General
ID                                       : 1 (0x1)
Complete name                            : Silversun Pickups 2013-10-12 Austin City Limits.ts
Format                                   : MPEG-TS
File size                                : 2.03 GiB
Duration                                 : 1h 1mn
Overall bit rate                         : 4 693 Kbps

Video
ID                                       : 256 (0x100)
Menu ID                                  : 1 (0x1)
Format                                   : AVC
Format/Info                              : Advanced Video Codec
Format profile                           : High@L4.0
Format settings, CABAC                   : Yes
Format settings, ReFrames                : 1 frame
Codec ID                                 : 27
Duration                                 : 1h 1mn
Bit rate                                 : 4 208 Kbps
Width                                    : 1 920 pixels
Height                                   : 1 080 pixels
Display aspect ratio                     : 16:9
Frame rate mode                          : Variable
Color space                              : YUV
Chroma subsampling                       : 4:2:0
Bit depth                                : 8 bits
Scan type                                : Progressive
Stream size                              : 1.82 GiB (90%)

Audio
ID                                       : 257 (0x101)
Menu ID                                  : 1 (0x1)
Format                                   : AAC
Format/Info                              : Advanced Audio Codec
Format version                           : Version 4
Format profile                           : LC
Muxing mode                              : ADTS
Codec ID                                 : 15
Duration                                 : 1h 1mn
Bit rate mode                            : Constant / Variable / Variable
Bit rate                                 : 250 Kbps
Minimum bit rate                         : 212 Kbps / 212 Kbps
Maximum bit rate                         : 355 Kbps / 355 Kbps
Channel(s)                               : 2 channels
Channel positions                        : Front: L R
Sampling rate                            : 48.0 KHz
Compression mode                         : Lossy
Delay relative to video                  : -22ms
Stream size                              : 111 MiB (5%)

Download:

Part 1: 800 MB

https://mega.co.nz/#!QMwjESyQ!LV29vmb9AMx2dLHWsb0RrVrS0WkY92WvE5sgqt2gXE0

Part 2: 800 MB

https://mega.co.nz/#!sE5BiBSD!DWaY7B7pstqk1GBBDlzJH2iQ2d0kwDmk838M6DSxHP8

Part 3: 347,1 MB

https://mega.co.nz/#!kAgX0JCZ!aJmZWzqE5ARPr_wbBswknRzEU29BKs18ZDRFom7dxFY

No hay comentarios:

Publicar un comentario en la entrada