viernes, 18 de octubre de 2013

Kings Of Leon - Live At Austin City Limits, Texas 10-12-2013



Live At Austin City Limits, Texas 10-12-2013




Setlist:

01 Black Thumbnail
02 Family Tree
03 The Bucket
04 Taper Jean Girl
05 Supersoaker
06 Notion
07 Rock City
08 Four Kicks
09 Crawl
10 Beautiful War
11 Closer
12 Fans
13 Back Down South
14 Pyro
15 Temple
16 Molly's Chambers
17 Be Somebody
18 On Call
19 Knocked Up
20 Cold Desert
21 Use Somebody
22 Don't Matter
23 Radioactive
24 Sex on Fire

Lineage: YouTube webstream (1080p) -> downloaded .ts segments (mplayer + batch script) -> TSSplitter (join)

Mediainfo:

General
ID                                       : 1 (0x1)
Complete name                            : Kings Of Leon 2013-10-12 Austin City Limits.ts
Format                                   : MPEG-TS
File size                                : 3.39 GiB
Duration                                 : 1h 47mn
Overall bit rate                         : 4 513 Kbps

Video
ID                                       : 256 (0x100)
Menu ID                                  : 1 (0x1)
Format                                   : AVC
Format/Info                              : Advanced Video Codec
Format profile                           : High@L4.0
Format settings, CABAC                   : Yes
Format settings, ReFrames                : 1 frame
Codec ID                                 : 27
Duration                                 : 1h 47mn
Bit rate                                 : 4 036 Kbps
Width                                    : 1 920 pixels
Height                                   : 1 080 pixels
Display aspect ratio                     : 16:9
Frame rate mode                          : Variable
Color space                              : YUV
Chroma subsampling                       : 4:2:0
Bit depth                                : 8 bits
Scan type                                : Progressive
Stream size                              : 3.03 GiB (89%)

Audio
ID                                       : 257 (0x101)
Menu ID                                  : 1 (0x1)
Format                                   : AAC
Format/Info                              : Advanced Audio Codec
Format version                           : Version 4
Format profile                           : LC
Muxing mode                              : ADTS
Codec ID                                 : 15
Duration                                 : 1h 47mn
Bit rate mode                            : Constant / Variable / Variable
Bit rate                                 : 251 Kbps
Minimum bit rate                         : 231 Kbps / 231 Kbps
Maximum bit rate                         : 339 Kbps / 339 Kbps
Channel(s)                               : 2 channels
Channel positions                        : Front: L R
Sampling rate                            : 48.0 KHz
Compression mode                         : Lossy
Delay relative to video                  : -34ms
Stream size                              : 193 MiB (6%)

Download:

Part 1: 850 MB

https://mega.co.nz/#!oQJnHJzZ!IamQmXNjeK4QTUNl-M52FnanIC0edSPCR1_b48XUsr8

Part 2: 850 MB

https://mega.co.nz/#!YMogzBZZ!RP97GEtZ9yQqbuoCYVXNgQjTMSkPRVlccNWT80gSh9M

Part 3: 850 MB

https://mega.co.nz/#!dNgQFSQJ!OGjfaCmOgTy5JSn5ynGM3AEH-XhyjGhMvjEz26rTGN8

Part 4: 704,9 MB

https://mega.co.nz/#!NFxzFCIQ!eLTX2gSpX65NRwU6Q29SUhZB_FBwsfPQdCtZIgae9Sw

No hay comentarios:

Publicar un comentario en la entrada