lunes, 14 de octubre de 2013

Queens Of The Stone Age - Live At Austin City Limits, Texas 10-11-2013



Live At Austin City Limits, Texas 10-11-2013



Setlist:

01 You Think I Ain't Worth a Dollar, but I Feel Like a Millionaire
02 No One Knows
03 My God Is the Sun
04 Burn the Witch
05 I Sat by the Ocean
06 …Like Clockwork
07 If I Had a Tail
08 Little Sister
09 Make It Wit Chu
10 Smooth Sailing
11 Sick, Sick, Sick
12 Go With the Flow
13 A Song for the Dead

Lineage: YouTube webstream (1080p) -> downloaded .ts segments (mplayer + batch script) -> TSSplitter (join)

Mediainfo:

General
ID                                       : 1 (0x1)
Complete name                            : \Queens Of The Stone Age 2013-10-11 Austin City Limits.ts
Format                                   : MPEG-TS
File size                                : 1.91 GiB
Duration                                 : 1h 0mn
Overall bit rate                         : 4 492 Kbps

Video
ID                                       : 256 (0x100)
Menu ID                                  : 1 (0x1)
Format                                   : AVC
Format/Info                              : Advanced Video Codec
Format profile                           : High@L4.0
Format settings, CABAC                   : Yes
Format settings, ReFrames                : 1 frame
Codec ID                                 : 27
Duration                                 : 1h 0mn
Bit rate                                 : 4 016 Kbps
Width                                    : 1 920 pixels
Height                                   : 1 080 pixels
Display aspect ratio                     : 16:9
Frame rate mode                          : Variable
Color space                              : YUV
Chroma subsampling                       : 4:2:0
Bit depth                                : 8 bits
Scan type                                : Progressive
Stream size                              : 1.71 GiB (89%)

Audio
ID                                       : 257 (0x101)
Menu ID                                  : 1 (0x1)
Format                                   : AAC
Format/Info                              : Advanced Audio Codec
Format version                           : Version 4
Format profile                           : LC
Muxing mode                              : ADTS
Codec ID                                 : 15
Duration                                 : 1h 0mn
Bit rate mode                            : Constant / Variable / Variable
Bit rate                                 : 252 Kbps
Minimum bit rate                         : 232 Kbps / 232 Kbps
Maximum bit rate                         : 318 Kbps / 318 Kbps
Channel(s)                               : 2 channels
Channel positions                        : Front: L R
Sampling rate                            : 48.0 KHz
Compression mode                         : Lossy
Delay relative to video                  : -26ms
Stream size                              : 109 MiB (6%)

Download:

Part 1: 800 MB

https://mega.co.nz/#!kUAVVRzL!Weiz-UcHyB1RWsAu3LXPqlNZ-Jhjyz9aTreQCOdwojU

Part 2: 800 MB

https://mega.co.nz/#!wNh2kbQI!cDuIWDMIuHDBeD0FrKRiO2lE6-s0gc6cwbNdUMsbTeA

Part 3: 232,9 MB

https://mega.co.nz/#!VFRgXRgB!bf6s6UIRbixfDO63TtgUoVN2kOgOnsqfajOVzCyI7f4

No hay comentarios:

Publicar un comentario en la entrada