jueves, 17 de octubre de 2013

The Black Angels - Live At Austin City Limits, Texas 10-11-2013



 Live At Austin City Limits, Texas 10-11-2013




Setlist:

01 Telephone
02 Broken Soldier
03 Bad Vibrations
04 Indigo Meadow
05 Young Men Dead
06 I Hear Colors (Chromaesthesia)
07 Don't Play with Guns
08 Twisted Light
09 Yellow Elevator #2
10 You on the Run

Lineage: YouTube webstream (1080p) -> downloaded .ts segments (mplayer + batch script) -> TSSplitter (join)

Mediainfo:

General
ID                                       : 1 (0x1)
Complete name                            : The Black Angels 2013-10-11 Austin City Limits.ts
Format                                   : MPEG-TS
File size                                : 1.92 GiB
Duration                                 : 58mn 5s
Overall bit rate                         : 4 734 Kbps

Video
ID                                       : 256 (0x100)
Menu ID                                  : 1 (0x1)
Format                                   : AVC
Format/Info                              : Advanced Video Codec
Format profile                           : High@L4.0
Format settings, CABAC                   : Yes
Format settings, ReFrames                : 1 frame
Codec ID                                 : 27
Duration                                 : 58mn 5s
Bit rate                                 : 4 246 Kbps
Width                                    : 1 920 pixels
Height                                   : 1 080 pixels
Display aspect ratio                     : 16:9
Frame rate mode                          : Variable
Color space                              : YUV
Chroma subsampling                       : 4:2:0
Bit depth                                : 8 bits
Scan type                                : Progressive
Stream size                              : 1.72 GiB (90%)

Audio
ID                                       : 257 (0x101)
Menu ID                                  : 1 (0x1)
Format                                   : AAC
Format/Info                              : Advanced Audio Codec
Format version                           : Version 4
Format profile                           : LC
Muxing mode                              : ADTS
Codec ID                                 : 15
Duration                                 : 58mn 5s
Bit rate mode                            : Constant / Variable / Variable
Bit rate                                 : 252 Kbps
Minimum bit rate                         : 206 Kbps / 206 Kbps
Maximum bit rate                         : 360 Kbps / 360 Kbps
Channel(s)                               : 2 channels
Channel positions                        : Front: L R
Sampling rate                            : 48.0 KHz
Compression mode                         : Lossy
Delay relative to video                  : -14ms
Stream size                              : 105 MiB (5%)

Download:

Part 1: 800 MB

https://mega.co.nz/#!wVxgkRYD!eZZgTT6dZWGnRH7D9bXJ8S6XuAUG5v0m73E7FtGrHiA

Part 2: 800 MB

https://mega.co.nz/#!tJoVGJTR!YaI4jzZodO3foVLOAQnA9Qrzyexhyqo43milqz6cCsI

Part 3: 245,2 MB

https://mega.co.nz/#!UJYUhKTK!QjUTrEJsYbl0ITKhhza6mFF65TBrXjJjXYATCsudyis

No hay comentarios:

Publicar un comentario en la entrada