martes, 17 de diciembre de 2013

Queens Of The Stone Age - Live At Not So Silent Night, Oracle Arena, Oakland 12-06-2013


 Live At Not So Silent Night, Oracle Arena, Oakland 12-06-2013




Setlist:

Feel Good Hit of the Summer
No One Knows
My God Is the Sun
If I Had a Tail
Little Sister
Make It Wit Chu
I Sat by the Ocean
Go With the Flow
A Song for the Dead

Lineage: YouTube webstream (720p) -> ffmpeg with m3u8 script -> uncompressed ts -> tssplitter (cut)

Mediainfo:

General
ID                                       : 1 (0x1)
Complete name                            : Queens Of The Stone Age 2013-12-06 Not So Silent Night.ts
Format                                   : MPEG-TS
File size                                : 749 MiB
Duration                                 : 41mn 34s
Overall bit rate                         : 2 519 Kbps

Video
ID                                       : 256 (0x100)
Menu ID                                  : 1 (0x1)
Format                                   : AVC
Format/Info                              : Advanced Video Codec
Format profile                           : Main@L3.1
Format settings, CABAC                   : Yes
Format settings, ReFrames                : 1 frame
Codec ID                                 : 27
Duration                                 : 41mn 31s
Bit rate                                 : 2 141 Kbps
Width                                    : 1 280 pixels
Height                                   : 720 pixels
Display aspect ratio                     : 16:9
Frame rate mode                          : Variable
Color space                              : YUV
Chroma subsampling                       : 4:2:0
Bit depth                                : 8 bits
Scan type                                : Progressive
Stream size                              : 636 MiB (85%)

Audio
ID                                       : 257 (0x101)
Menu ID                                  : 1 (0x1)
Format                                   : AAC
Format/Info                              : Advanced Audio Codec
Format version                           : Version 4
Format profile                           : LC
Muxing mode                              : ADTS
Codec ID                                 : 15
Duration                                 : 41mn 34s
Bit rate mode                            : Constant / Variable / Variable
Bit rate                                 : 251 Kbps
Minimum bit rate                         : 216 Kbps / 216 Kbps
Maximum bit rate                         : 345 Kbps / 345 Kbps
Channel(s)                               : 2 channels
Channel positions                        : Front: L R
Sampling rate                            : 48.0 KHz
Compression mode                         : Lossy
Delay relative to video                  : -81ms
Stream size                              : 74.6 MiB (10%)

Download: 697,5 MB

https://mega.co.nz/#!KoQgmCgC!fq4InV8g1rvL479ZCAiGlCQpi7gZz08p7bIFQj5jGJE

No hay comentarios:

Publicar un comentario en la entrada