sábado, 25 de mayo de 2013

Colour Hace - Live At Crossroads, Bonn, Harmonie 10-18-2007



 Live At Crossroads, Bonn, Harmonie 10-18-2007





Setlist:

01 Aquamaria
02 Moon
03 Z.E.N.
04 Sundazed
05 Outside
06 Peace, Brothers & Sisters!
07 Tempel
08 Love

Info:

Format                                   : Flash Video
File size                                : 5.12 MiB
Duration                                 : 1mn 18s
Overall bit rate                         : 546 Kbps
Encoded date                             : Fri Aug 08 00:51:23 2008
Writing application                      : Sorenson Squeeze / Sorenson Squeeze

Format                                   : VP6
Codec ID                                 : 4
Duration                                 : 1mn 18s
Bit rate                                 : 450 Kbps
Width                                    : 512 pixels
Height                                   : 288 pixels
Display aspect ratio                     : 16:9
Frame rate mode                          : Constant
Frame rate                               : 25.000 fps
Bit depth                                : 8 bits
Bits/(Pixel*Frame)                       : 0.122
Stream size                              : 4.22 MiB (82%)

Format                                   : MPEG Audio
Format version                           : Version 1
Format profile                           : Layer 3
Mode                                     : Joint stereo
Mode extension                           : MS Stereo
Codec ID                                 : 2
Codec ID/Hint                            : MP3
Duration                                 : 1mn 18s
Bit rate mode                            : Constant
Bit rate                                 : 112 Kbps
Channel(s)                               : 2 channels
Sampling rate                            : 44.1 KHz
Compression mode                         : Lossy
Stream size                              : 1.05 MiB (20%)

Download: 308,9 MB

https://mega.co.nz/#!cAlWRbza!QSTrW1lMSF4IoJyr2rjyCR-LUpN6jlmCHWdvyYeN4tA

No hay comentarios:

Publicar un comentario en la entrada