miércoles, 25 de septiembre de 2013

Sebastian Bach - Live At Rock In Rio, Rio de Janeiro, Brazil 09-21-2013


 Live At Rock In Rio, Rio de Janeiro, Brazil 09-21-2013




Setlist:

01 Slave to the Grind (Skid Row song)
02 Kicking & Screaming
03 Dirty Power
04 Here I Am (Skid Row song)
05 Big Guns (Skid Row song)
06 Stuck Inside
07 Piece of Me (Skid Row song)
08 18 and Life (Skid Row song)
09 American Metalhead (PainmuseuM cover)
10 Tunnelvision
11 Monkey Business (Skid Row song)
12 I Remember You (Skid Row song)
13 Wasted Time (Skid Row song) (acapella snippet)
14 Youth Gone Wild (Skid Row song)

info (just the first vob):
General
Complete name                            : D:\VIDEO_TS\VTS_01_1.VOB
Format                                   : MPEG-PS
File size                                : 1 024 MiB
Duration                                 : 30mn 0s
Overall bit rate                         : 4 769 Kbps

Video
ID                                       : 224 (0xE0)
Format                                   : MPEG Video
Format version                           : Version 2
Format profile                           : Main@Main
Format settings, BVOP                    : Yes
Format settings, Matrix                  : Custom
Format settings, GOP                     : M=3, N=15
Duration                                 : 30mn 0s
Bit rate                                 : 4 380 Kbps
Width                                    : 720 pixels
Height                                   : 480 pixels
Display aspect ratio                     : 4:3
Frame rate                               : 29.970 fps
Standard                                 : NTSC
Color space                              : YUV
Chroma subsampling                       : 4:2:0
Bit depth                                : 8 bits
Scan type                                : Interlaced
Scan order                               : Top Field First
Compression mode                         : Lossy
Bits/(Pixel*Frame)                       : 0.423
Time code of first frame                 : 00:09:14;18
Time code source                         : Group of pictures header
Stream size                              : 949 MiB (93%)

Audio
ID                                       : 189 (0xBD)-128 (0x80)
Format                                   : AC-3
Format/Info                              : Audio Coding 3
Mode extension                           : CM (complete main)
Format settings, Endianness              : Big
Muxing mode                              : DVD-Video
Duration                                 : 30mn 0s
Bit rate mode                            : Constant
Bit rate                                 : 256 Kbps
Channel(s)                               : 2 channels
Channel positions                        : Front: L R
Sampling rate                            : 48.0 KHz
Bit depth                                : 16 bits
Compression mode                         : Lossy
Delay relative to video                  : -509ms
Stream size                              : 55.0 MiB (5%)

Lineage: cable TV Multishow HD > Philips DVD recorder with Hard Disk > TDK DVD-R > dvddecrypter (0 errors) > my Hard Disk

the cable tv is in HD, but my dvd recorder does not record in HD

the dvds have a standard menu, a chapter every 5 minutes

and remember: THE MASTERS WILL BE THE LAST BAND OF THE LAST DAY OF THE FESTIVAL

almost the entire show was broadcasted, one hour long broadcast

Download:

Part 1: 950 MB

https://mega.co.nz/#!8FBxCSqS!IZk96CPKAw1AqhfF6SRJnXJ6RoAIG90jHpePfLxxmO4

Part 2: 950 MB

https://mega.co.nz/#!gJA2hAxZ!PIEBe3S69zvopWdRKpgAChaSeLAsb4uDlCxEpWTIVmk

Part 3: 65,7 MB

https://mega.co.nz/#!xEIAjSjL!SMc0zS2IptaGDJnohTp7dWHyNupUdGBOvh137MmXpVM

No hay comentarios:

Publicar un comentario en la entrada