lunes, 19 de noviembre de 2012

The Afghan Whigs - Live At Morning Becomes Eclectic, KCRW Studios, Santa Monica, USA 11-09-2012


 Live At Morning Becomes Eclectic, KCRW Studios, Santa Monica, USA 11-09-2012




Setlist:

01 Heaven On Their Minds
02 Somethin’ Hot
03 Turn On The Water
04 See And Don’t See
05 Magazine
06 Fountain And Fairfax
07 Mean Sleep (with Van Hunt)
08 I Keep Coming Back

Source:

http://www.kcrw.com/ => RTMPDump => FLV => YOU

Ripped by: hunter212

At the special request for bobfather

Info:

Format                                   : Flash Video
File size                                : 420 MiB
Duration                                 : 41mn 30s
Overall bit rate                         : 1 413 Kbps

Video
Format                                   : VP6
Codec ID                                 : 4
Duration                                 : 41mn 30s
Bit rate                                 : 1 200 Kbps
Width                                    : 480 pixels
Height                                   : 360 pixels
Display aspect ratio                     : 4:3
Frame rate mode                          : Constant
Frame rate                               : 29.970 fps
Bit depth                                : 8 bits
Bits/(Pixel*Frame)                       : 0.232
Stream size                              : 356 MiB (85%)

Audio
Format                                   : MPEG Audio
Format version                           : Version 1
Format profile                           : Layer 3
Mode                                     : Joint stereo
Mode extension                           : MS Stereo
Codec ID                                 : 2
Codec ID/Hint                            : MP3
Duration                                 : 41mn 30s
Bit rate mode                            : Constant
Bit rate                                 : 128 Kbps
Channel(s)                               : 2 channels
Sampling rate                            : 44.1 KHz
Compression mode                         : Lossy
Delay relative to video                  : 27ms
Stream size                              : 38.0 MiB (9%)

Download: 417,9 MB

http://depositfiles.com/files/dv92e0dr0

No hay comentarios:

Publicar un comentario en la entrada