jueves, 11 de abril de 2013

The Black Keys - Live At Pepsi Music, Buenos Aires, Argentina 04-03-2013



Live At Pepsi Music, Buenos Aires, Argentina 04-03-2013





Setlist:

01 Howlin' For You
02 Next Girl
03 Run Right Back
04 Same Old Thing
05 Dead And Gone
06 Gold On The Ceiling
07 Thickfreakness
08 Girl Is On My Mind
09 Your Touch
10 Little Black Submarines
11 Money Maker
12 Strange Times
13 Sinister Kid
14 Nova Baby
15 Ten Cent Pistol
16 She's Long Gone
17 Tighten Up
18 Lonely Boy
19 I Got Mine

By Loquerisne

Info:

Video:

Format : AVI
Format/Info : Audio Video Interleave
Format profile : OpenDML
File size : 1.86 GiB
Duration : 1h 19mn
Overall bit rate : 3 334 Kbps
Writing application : Lavf52.94.0

Format : AVC
Format/Info : Advanced Video Codec
Format settings, CABAC : Yes
Format settings, ReFrames : 2 frames
Codec ID : H264
Duration : 1h 19mn
Bit rate : 3 000 Kbps
Width : 720 pixels
Height : 408 pixels
Display aspect ratio : 16:9
Frame rate mode : Variable
Frame rate : 30.000 fps
Color space : YUV
Chroma subsampling : 4:2:0
Bit depth : 8 bits
Scan type : Progressive
Bits/(Pixel*Frame) : 0.340
Stream size : 1.67 GiB (90%)

Audio:

ID : 1
Format : MPEG Audio
Format version : Version 1
Format profile : Layer 3
Mode : Joint stereo
Mode extension : MS Stereo
Codec ID : 55
Codec ID/Hint : MP3
Duration : 1h 19mn
Bit rate mode : Constant
Bit rate : 320 Kbps
Channel(s) : 2 channels
Sampling rate : 48.0 KHz
Compression mode : Lossy
Stream size : 183 MiB (10%)
Alignment : Aligned on interleaves
Interleave, duration : 24 ms (0.72 video frame)
Writing library : LAME3.98.4

Download:

Part 1: 700 MB

http://depositfiles.com/files/yq30v0kj9

Part 2: 700 MB

http://depositfiles.com/files/3016rwf1i

Part 3: 503,9 MB

http://depositfiles.com/files/zqmwqrpn2

No hay comentarios:

Publicar un comentario en la entrada