martes, 28 de febrero de 2012

The Exploited - Live At Metro Theatre, Sydney, AUS 09-26-2007



Live At Metro Theatre, Sydney, AUS 09-26-2007






Setlist:

01 Let's Start A War
02 Fightback
03 The Massacre
04 Dogs Of War
05 Chaos Is My Life
06 UK'82
07 Dead Cities
08 Fuck The System
09 I Hate Cop Cars
10 Noise Annoys
11 Troops Of Tomorrow
12 Never Sell Out
13 Rival Leaders
14 Alternative
15 You're A Fucking Bastard
16 I Believe In Anarchy
17 I Don't Want A Holiday
18 Beat The Bastards
19 Daily News
20 What's The Point
21 Fuck The USA
22 Porno Slut
23 Army Life
24 Sex And Violence
25 Punk's Not Dead
26 Maggie
27 Was It Me?

Info:

Format : AVI
Format/Info : Audio Video Interleave
File size : 553 MiB
Duration : 1h 25mn
Overall bit rate : 907 Kbps
Writing application : MEncoder Sherpya-SVN-r27811-4.2.5
Writing library : MPlayer
Video
ID : 0
Format : MPEG-4 Visual
Format profile : Simple@L3
Format settings, BVOP : No
Format settings, QPel : No
Format settings, GMC : No warppoints
Format settings, Matrix : Default (H.263)
Codec ID : XVID
Codec ID/Hint : XviD
Duration : 1h 25mn
Bit rate : 762 Kbps
Width : 640 pixels
Height : 360 pixels
Display aspect ratio : 16:9
Frame rate : 25.000 fps
Color space : YUV
Chroma subsampling : 4:2:0
Bit depth : 8 bits
Scan type : Progressive
Compression mode : Lossy
Bits/(Pixel*Frame) : 0.132
Stream size : 465 MiB (84%)
Writing library : XviD 1.1.2 (UTC 2006-11-01)
Audio
ID : 1
Format : MPEG Audio
Format version : Version 1
Format profile : Layer 3
Mode : Joint stereo
Codec ID : 55
Codec ID/Hint : MP3
Duration : 1h 25mn
Bit rate mode : Variable
Bit rate : 132 Kbps
Channel(s) : 2 channels
Sampling rate : 44.1 KHz
Compression mode : Lossy
Stream size : 80.7 MiB (15%)
Alignment : Aligned on interleaves
Interleave, duration : 26 ms (0.65 video frame)
Interleave, preload duration : 541 ms


Download: 545,76 MB

http://www.fileserve.com/file/BA4CyUN/The Exploited - Live At Metro Theatre, Sydney, AUS 09-26-2007.rar

No hay comentarios:

Publicar un comentario en la entrada