domingo, 18 de diciembre de 2011

The Jimi Hendrix Experience - Live At Stockholm, Sweden 01-09-1969



Live At Stockholm, Sweden 01-09-1969





Setlist:

01 Killing Floor
02 Spanish Castle Magic
03 Fire
04 Hey Joe
05 Voodoo Child (Slight Return)
06 Red House
07 Sunshine Of Your Love

Band:

Jimi Hendrix - Guitar
Noel Redding - Bass
Mitch Mitchell - Drums

Info:

País: EE.UU.
Género: Documental, Rock
Duración: 00:56:13
Año: 1969
Fuente: frashwap
Calidad: DVDRip
Contenedor: AVI
Video Codec: XviD
Audio Codec: AC3

Video:

ID : 0
Format : MPEG-4 Visual
Format profile : Advanced Simple@L5
Format settings, BVOP : No
Format settings, QPel : No
Format settings, GMC : No warppoints
Format settings, Matrix : Custom
Codec ID : XVID
Codec ID/Hint : XviD
Duration : 56mn 13s
Bit rate : 4 810 Kbps
Width : 720 pixels
Height : 544 pixels
Display aspect ratio : 4:3
Frame rate : 25.000 fps
Color space : YUV
Chroma subsampling : 4:2:0
Bit depth : 8 bits
Scan type : Progressive
Bits/(Pixel*Frame) : 0.491
Stream size : 1.89 GiB (95%)
Writing library : XviD 58

Audio:

ID : 1
Format : AC-3
Format/Info : Audio Coding 3
Mode extension : CM (complete main)
Codec ID : 2000
Duration : 56mn 13s
Bit rate mode : Constant
Bit rate : 256 Kbps
Channel(s) : 2 channels
Channel positions : Front: L R
Sampling rate : 48.0 KHz
Bit depth : 16 bits
Video delay : 24ms
Stream size : 103 MiB (5%)
Alignment : Split accross interleaves
Interleave, duration : 96 ms (2.40 video frames)
Interleave, preload duration : 96 ms

Download:

Part 1: 500 MB

http://www.megaupload.com/?d=PW9QC5YQ

Part 2: 500 MB

http://www.megaupload.com/?d=O1RWAPCC

Part 3: 500 MB

http://www.megaupload.com/?d=3P46G88U

Part 4: 500 MB

http://www.megaupload.com/?d=7AC0T75D

Part 5: 42,90 MB

http://www.megaupload.com/?d=YQVN50YR

No hay comentarios:

Publicar un comentario en la entrada