lunes, 16 de abril de 2012

The Black Keys - Live In Austin City Limits Festival, Austin, Texas 10-12-2010



Live In Austin City Limits Festival, Austin, Texas 10-12-2010



Setlist:

01 Thickfreakness
02 I'll Be Your Man
03 Next Girl
04 Howlin For You
05 Tighten Up
06 She's Long Gone
07 I Got Mine

Band:

Dan Auerbach – guitar, vocals
Patrick Carney – drums
Nick Movshon – bass
Leon Michels - keyboards

Info:

ATSC-> antenna-> computer capture card->mpeg2cut2->mpeg2repair->you

MPEG2Repair Info:

Sequence Frame 52770(28-P) / Time 0:29:20 :
Info: End of MPEG2 sequence
Sequence Summary:

File Size Processed: 2.41 GB, Play Time: 00h:29m:20s
1920 x 1080, 29.97 fps, 65.00 Mbps (10.98 Mbps Average).
Average Video Quality: 44.70 KB/Frame, 0.18 Bits/Pixel.
AC3 Audio: 3/2 Channels (L, C, R, SL, SR) + LFE, 48.0 kHz, 384 kbps.
Dialog Normalization: -24.0 dB, Center Mix Level: -6.0 dB, Surround Mix Level: -3.0 dB
0 of 52770 video frames found with errors.
0 of 55025 audio frames found with errors.
0 corrupted video bytes in file.
0.000000 seconds of video timestamp gaps.
0.000000 seconds of audio timestamp gaps.

End of Log

MediaInfo:

Format                           : MPEG-TS
File size                        : 2.41 GiB
Duration                         : 29mn 20s
Start time                       : UTC 2012-04-02 09:26:13
End time                         : UTC 2012-04-02 09:55:32
Overall bit rate mode            : Variable
Overall bit rate                 : 11.8 Mbps

Video
ID                               : 113 (0x71)
Menu ID                          : 7 (0x7)
Format                           : MPEG Video
Format version                   : Version 2
Format profile                   : Main@High
Format settings, BVOP            : Yes
Format settings, Matrix          : Custom
Codec ID                         : 2
Duration                         : 29mn 18s
Bit rate mode                    : Variable
Bit rate                         : 10.8 Mbps
Maximum bit rate                 : 65.0 Mbps
Width                            : 1 920 pixels
Height                           : 1 080 pixels
Display aspect ratio             : 16:9
Frame rate                       : 29.970 fps
Color space                      : YUV
Chroma subsampling               : 4:2:0
Bit depth                        : 8 bits
Scan type                        : Interlaced
Scan order                       : Top Field First
Compression mode                 : Lossy
Bits/(Pixel*Frame)               : 0.174
Stream size                      : 2.21 GiB (92%)

Audio
ID                               : 116 (0x74)
Menu ID                          : 7 (0x7)
Format                           : AC-3
Format/Info                      : Audio Coding 3
Mode extension                   : CM (complete main)
Codec ID                         : 129
Duration                         : 29mn 20s
Bit rate mode                    : Constant
Bit rate                         : 384 Kbps
Channel(s)                       : 6 channels
Channel positions                : Front: L C R, Side: L R, LFE
Sampling rate                    : 48.0 KHz
Bit depth                        : 16 bits
Compression mode                 : Lossy
Delay relative to video          : -252ms
Stream size                      : 80.6 MiB (3%)
Language                         : English

Text #1
ID                               : 113 (0x71)-608-1
Menu ID                          : 7 (0x7)
Format                           : EIA-608
Muxing mode                      : A/53 / DTVCC Transport
Muxing mode, more info           : Muxed in Video #1
Duration                         : 29mn 18s
Bit rate mode                    : Constant
Stream size                      : 0.00 Byte (0%)

Text #2
ID                               : 113 (0x71)-1
Menu ID                          : 7 (0x7)
Format                           : EIA-708
Muxing mode                      : A/53 / DTVCC Transport
Muxing mode, more info           : Muxed in Video #1
Duration                         : 29mn 18s
Bit rate mode                    : Constant
Stream size                      : 0.00 Byte (0%)

Download:

Part 1: 700 MB

http://depositfiles.com/files/1a4shbawl

Part 2: 700 MB

http://depositfiles.com/files/1x2pkby7i

Part 3: 700 MB

http://depositfiles.com/files/usjttj4qy

Part 4: 295 MB

http://depositfiles.com/files/vehka25q0

Torrent:

http://thepiratebay.se/torrent/7191019/The_Black_Keys_-_Live_In_Austin_City_Limits_Festival__Austin__Te

5 comentarios:

  1. Hola amigo,

    Los links 3 y 4 están out.

    Gracias y saludos

    Eduardo (Curitiba - Brasil)

    ResponderEliminar
  2. Muchisimas gracias!!!

    Saludos !

    Eduardo (Curitiba - Brasil)

    ResponderEliminar